#TITLE:听妈妈的话;
#SUBTITLE:;
#ARTIST:周杰伦;
#TITLETRANSLIT:;
#SUBTITLETRANSLIT:;
#ARTISTTRANSLIT:;
#CREDIT:;
#BANNER:i_logo.jpg;
#BACKGROUND:i_bg.jpg;
#LYRICSPATH:;
#CDTITLE:Lan.png;
#MUSIC:i.mp3;
#OFFSET:-0.100;
#SAMPLESTART:100.000;
#SAMPLELENGTH:12.000;
#SELECTABLE:YES;
#BPMS:0.000=93.000;
#STOPS:;
#BGCHANGES:;
// cache tags:
#FIRSTBEAT:4.000;
#LASTBEAT:277.250;
#SONGFILENAME:Songs/SDO 2/i/i.sm;
#HASMUSIC:1;
#HASBANNER:1;
#MUSICLENGTH:183.788;
// end cache tags

//---------------dance-single - sky----------------
#NOTES:
     dance-single:
     sky:
     Hard:
     7:
     0.565,0.490,0.920,0.000,0.038,558.000,169.000,0.000,0.000,0.000:

0000
0000
0000
0000
,
1001
1000
0100
0010
0001
0010
0100
1000
,
1001
0001
0010
0100
1000
0100
0010
0001
,
0110
1000
0010
0001
0100
1000
0100
0001
,
0110
0010
1000
0001
0100
0010
1001
0001
,
1010
1000
0100
1000
0110
1000
0101
1000
,
1010
0100
0010
0100
1001
0100
0010
0100
,
0011
0100
1010
0100
0011
0100
1010
0100
,
1001
1000
0010
0001
0010
1000
0010
0001
,
0110
0010
0001
0010
0101
0010
1001
0010
,
1001
0010
0100
1000
0110
0001
0100
0010
,
1100
0001
1010
0001
1100
0001
1010
0001
,
1100
0001
0100
1000
0100
0001
0100
1000
,
1010
0100
1000
0010
0101
0010
1001
0100
,
1001
1000
0100
0001
0110
1000
0001
0100
,
0101
1000
1010
0001
0101
1000
1010
0001
,
0110
0001
0100
0010
1000
0010
0100
0001
,
0101
0100
0010
1000
0011
0100
1100
1000
,
0110
0001
1000
0100
0011
0100
1000
0100
,
1100
0001
0110
1000
0011
1000
0110
0001
,
1100
1000
0100
0010
0001
0010
0100
1000
,
0011
1000
0100
0001
1100
0010
0101
1000
,
0101
0100
0010
0100
1010
0100
0010
0100
,
0011
0100
1010
0100
0011
0100
1010
0100
,
1001
0000
0000
0000
1000
0000
0000
0000
0010
0000
0000
0000
0001
0000
0000
0000
1001
0010
0001
0010
1000
0000
0000
0000
0010
0000
0000
0000
0001
0000
0000
0000
,
0110
1000
0001
0010
1010
0001
0101
0100
,
1001
0010
0100
1000
0110
0001
0010
0100
,
1100
0001
1010
0001
1100
0001
1010
0001
,
1100
0001
0100
1000
0100
0001
0100
1000
,
1010
0100
1000
0010
0101
0010
1001
0100
,
1001
0001
0010
1000
1100
0001
1000
0010
,
0101
1000
1010
0001
1010
1000
0101
0001
,
1001
0000
0000
0000
1000
0000
0000
0000
0001
0000
0000
0000
0100
0000
0000
0000
1010
0100
1000
0100
0001
0000
0000
0000
1000
0000
0000
0000
0010
0000
0000
0000
,
0110
0001
0010
1000
0101
0010
0110
1000
,
0101
0100
0010
0100
1010
0100
0010
0100
,
0011
0100
0110
1000
1100
0010
0110
0001
,
0110
1000
0001
0100
0010
1000
0001
0010
,
1010
1000
0100
1000
0110
1000
0101
1000
,
1010
0100
0010
0100
1001
0100
0010
0100
,
0011
0100
1010
0100
0011
0100
1010
0100
,
1001
1000
0010
0001
0010
1000
0010
0001
,
0110
0010
0001
0010
0101
0010
1001
0010
,
1001
0010
0100
1000
0110
0001
0100
0010
,
1100
0001
1010
0001
1100
0001
1010
0001
,
1100
0001
0100
1000
0100
0001
0100
1000
,
1010
0100
1000
0010
0101
0010
1001
0100
,
1001
1000
0100
0001
0110
1000
0001
0100
,
0101
1000
1010
0001
0101
1000
1010
0001
,
0110
0001
0100
0010
1000
0010
0100
0001
,
0101
0100
0010
1000
0011
0100
1100
1000
,
0110
0001
1000
0100
0011
0100
1000
0100
,
1100
0001
0110
1000
0011
1000
0110
0001
,
1100
1000
0100
0010
0001
0010
0100
1000
,
0011
1000
0100
0001
1100
0010
0101
1000
,
0101
0100
0010
0100
1010
0100
0010
0100
,
0011
0100
1010
0100
0011
0100
1010
0100
,
1001
0000
0000
0000
1000
0000
0000
0000
0010
0000
0000
0000
0001
0000
0000
0000
1001
0010
0001
0010
1000
0000
0000
0000
0010
0000
0000
0000
0001
0000
0000
0000
,
0110
1000
0001
0010
1010
0001
0101
0100
,
1001
0010
0100
1000
0110
0001
0010
0100
,
1100
0001
1010
0001
1100
0001
1010
0001
,
1100
0001
0100
1000
0100
0001
0100
1000
,
1010
0100
1000
0010
0101
0010
1001
0100
,
1001
0001
0010
1000
1100
0001
1000
0010
,
0101
1000
1010
0001
1010
1000
0101
0001
,
1001
0000
0000
0000
1000
0000
0000
0000
0001
0000
0000
0000
0100
0000
0000
0000
1010
0100
1000
0100
0001
0000
0000
0000
1000
0000
0000
0000
0010
0000
0000
0000
,
0110
0001
0010
1000
0101
0010
0110
1000
,
0101
0100
0010
0100
1010
0100
0010
0100
,
0011
0100
0110
1000
1100
0010
0110
0001
,
0110
1000
0001
0100
0010
0000
1000
0000
,
0000
0000
0001
0010
0100
1000
0000
0000
0000
0000
0000
0000
0000
0000
0000
0000
;
